#TITLE:Flower;
#SUBTITLE:SDO China lv15 - [N]hok[Q] Simfile;
#ARTIST:Hana Ranman Terra;
#TITLETRANSLIT:;
#SUBTITLETRANSLIT:;
#ARTISTTRANSLIT:;
#CREDIT:[N]hok[Q];
#BANNER:bn.png;
#BACKGROUND:bg.png;
#LYRICSPATH:;
#CDTITLE:cd.png;
#MUSIC:Flower - Terra.mp3;
#OFFSET:-0.139;
#SAMPLESTART:36.139;
#SAMPLELENGTH:18.750;
#SELECTABLE:YES;
#BPMS:0.000=160.000,162.000=80.000,164.000=160.000;
#STOPS:;
#BGCHANGES:0.000=Flower - Terra AMV.avi=1.000=1=1=0,
266.000=bg.png=1.000=0=0=1,
99999=-nosongbg-=1.000=0=0=0 // don't automatically add -songbackground-
;
// cache tags:
#FIRSTBEAT:1.000;
#LASTBEAT:266.000;
#SONGFILENAME:Songs/SDO pack 5/Flower - Terra/Flower - Terra.sm;
#HASMUSIC:1;
#HASBANNER:1;
#MUSICLENGTH:104.640;
// end cache tags

//---------------dance-single - ----------------
#NOTES:
     dance-single:
     :
     Hard:
     15:
     1.000,1.000,1.000,0.401,0.516,554.000,237.000,42.000,0.000,30.000:
0000
0000
1100
0010
1002
0000
0023
0000
,
0231
2301
3201
0320
,
1230
0000
0000
0300
1002
0000
1023
0000
,
0231
0000
0000
0000
0000
0000
0000
0000
0000
0000
0000
0000
2310
0000
0000
0000
0000
0000
3000
0000
0000
0000
0000
0000
1000
0000
0000
0000
0000
0000
1000
0000
0100
0000
0010
0000
0001
0000
0000
0100
0000
0000
0001
0000
0000
0100
0000
0000
,
0010
1000
0010
1000
0221
0000
0000
0000
1331
0000
0100
0000
1010
0000
0001
0000
,
1010
0001
1100
0001
1100
0001
1010
0001
,
1100
0001
1010
0100
1001
0100
1010
0001
,
1010
0001
1100
0001
1010
0001
1100
0010
,
1001
0000
0010
0100
1001
0000
0010
0100
1011
0000
0010
0010
1100
0000
0010
0000
,
1100
0000
0010
0010
1100
0000
0010
0000
1100
0000
0001
0001
1100
0000
0001
0000
,
1100
0000
0001
0001
1100
0000
0001
0000
1010
0000
0100
0100
1010
0000
0100
0000
,
1010
0000
0100
0100
1010
0000
0100
0000
1001
0000
0010
0010
1001
0000
0010
0000
,
1001
0100
0010
0001
1010
0100
1010
0001
1100
0000
0010
0010
1100
0000
0010
0000
,
1100
0000
0010
0010
1100
0000
0010
0000
1100
0000
0001
0001
1100
0000
0001
0000
,
1010
0001
0100
0010
1001
0100
0001
0010
1001
0000
0100
0100
1001
0000
0100
0000
,
1001
0000
0100
0100
1001
0000
0100
0000
1010
0000
0001
0001
1010
0000
0001
0000
,
1100
0010
1001
0010
1001
0100
1010
0001
1100
0010
0001
0010
1200
0000
0310
0001
,
1010
0001
0200
0000
1310
0001
0010
0100
1001
0010
0001
0100
1001
0010
0001
0100
,
1010
0001
0100
0000
1002
0000
0000
0000
1103
0010
0001
0100
1020
0000
0130
0001
,
1010
0001
0200
0000
1310
0001
0100
0010
1100
0001
0010
0001
1100
0010
0100
0001
,
1100
0001
0010
0000
1002
0000
0010
0100
1013
0100
0001
0010
1002
0000
0103
0010
,
1001
0100
0020
0000
1130
0001
0100
0010
1100
0001
0010
0001
1100
0001
0010
0001
,
1100
0010
0100
0000
1002
0000
0000
0000
1103
0010
0001
0100
1020
0000
0130
0001
,
1010
0100
0020
0000
0131
1000
0100
1000
0101
0000
0000
0000
0202
0000
0000
0000
,
0000
0000
0313
1000
0102
0000
0000
0000
0113
0000
0000
0000
0110
0000
1001
0000
,
0110
0000
0000
0000
1000
0000
0100
0000
0010
0000
0000
0100
0010
0000
0001
0000
,
0010
0000
0110
1001
0110
0000
0110
1001
,
0110
0000
0000
0000
1000
0000
0100
0000
0010
0000
0000
0100
0010
0000
0001
0000
,
0010
0000
0110
1001
0110
0000
0110
1001
,
0110
0000
0000
0000
1000
0000
0100
0000
0010
0000
0000
0100
0010
0000
0001
0000
,
0100
0000
0110
1001
0110
0000
0110
1001
,
0110
0000
0000
0000
1000
0000
0100
0000
0010
0000
0000
0101
1010
0000
1100
0000
,
0011
0000
0000
0000
1001
0100
0010
0100
1002
0000
0000
0000
0000
0000
0000
0000
,
0023
0000
0000
0000
0000
0000
0000
0001
1230
0000
0000
0000
1000
0000
0000
0000
,
1000
0000
0000
0000
0000
0000
0000
1000
1320
0000
0000
0000
0000
0000
0000
0000
,
1032
0023
1230
0001
,
0001
0000
1000
0001
0010
0000
0001
0001
1320
0000
0000
0000
1130
0000
0010
0000
,
1002
0000
1103
0010
1100
0001
1010
0100
,
1020
0000
1130
0010
1002
0000
1103
0010
,
1002
0000
1103
0010
1100
0001
1010
0100
,
1001
0000
0000
0000
0011
0100
1000
0100
0022
0000
0000
0000
0000
0000
0000
0033
,
1000
0100
0001
0010
0100
1000
0100
0010
,
1000
0100
0001
0010
0100
1000
0100
0010
,
1000
0100
0001
0010
0100
1000
0100
0010
,
1000
0000
0100
0000
0001
0000
0010
0000
0100
0000
1000
0000
0100
0000
1010
1000
,
1001
0000
1100
0010
1001
0000
1100
0010
,
1001
0000
0000
0010
1001
0000
0001
0000
1010
0000
0000
0000
1100
0000
0010
0000
,
1001
0000
0000
0000
1100
0000
0010
0000
1001
0000
1000
0100
0010
0100
1000
0100
,
0011
0000
0000
1000
0101
0000
1010
0000
0102
0000
0000
0000
1100
0000
0013
0000
,
1001
0000
1100
0010
1001
0000
1100
0010
,
1001
0000
0000
0100
1010
0000
0001
0000
1010
0000
0000
0000
1100
0000
0010
0000
,
1001
0000
1100
0010
1001
0000
1100
0010
,
1001
0000
0000
0100
1010
0000
0001
0000
1010
0000
1000
0000
1100
0000
1010
0000
,
1001
0000
1100
0010
1001
0000
1100
0010
,
1001
0000
0000
0100
1010
0000
0001
0000
1010
0000
0000
0000
1100
0000
0010
0000
,
1001
0000
1100
0010
1001
0000
1100
0010
,
0001
0010
0100
1000
0100
0010
0001
0010
0100
1000
0100
0010
0001
0010
0100
0010
,
1001
0100
1001
0110
1000
0110
1100
0110
,
1001
0100
1001
0110
1000
0110
1100
0110
,
1001
0100
1001
0110
1000
0110
1100
0101
,
1010
0000
0100
0000
1010
0000
0100
0000
0101
0000
0010
0000
0101
1000
0110
0000
,
1001
0100
1001
0110
1000
0110
1100
0110
,
1001
0100
1001
0110
1000
0110
1100
0110
,
1001
0100
1001
0110
1000
0101
1100
0101
,
1010
0000
0101
0000
1010
0000
0000
0000
0011
0100
1001
0100
0011
1000
0110
1000
,
0101
0000
0010
1000
0010
0001
0100
0010
,
0001
1000
0100
0010
0001
0000
0000
0000
,
0000
0000
0000
0000
,
0000
0000
0000
0000
,
0000
0000
0000
0000
;

//---------------dance-single - ----------------
#NOTES:
     dance-single:
     :
     Challenge:
     19:
     1.000,1.000,1.000,0.679,0.516,591.000,372.000,71.000,0.000,90.000:
0000
0000
1011
0100
2101
0010
3210
0010
,
1321
0100
1132
0010
1123
0001
1230
0001
,
1321
0100
1100
0130
2011
0010
3211
0001
,
1321
0000
0000
0000
0000
0000
0100
0000
0000
0000
0000
0000
1132
0000
0000
0000
0000
0000
0103
0000
0000
0000
0000
0000
1011
0000
0000
0000
0000
0000
0001
0000
0010
0000
0100
0000
1000
0000
0000
0010
0000
0000
1000
0000
0000
0010
0000
0000
,
0100
0001
0100
0001
2021
0000
0000
0000
3131
0000
1010
0000
0101
0000
1010
0000
,
0101
1100
0011
1100
0011
1010
0101
1010
,
0011
1100
0101
0110
1001
0110
0101
1010
,
0101
1010
0011
1100
0101
1010
0011
0110
,
1001
0000
0100
0010
1001
0000
0100
0010
1101
0000
0100
0100
0111
0000
0100
0000
,
0011
0000
0100
0100
1011
0000
0100
0000
0011
0000
1000
1000
0111
0000
1000
0000
,
0011
0000
1000
1000
0111
0000
1000
0000
0101
0000
0010
0010
1101
0000
0010
0000
,
0101
0000
0010
0010
1101
0000
0010
0000
1001
0000
0100
0100
1011
0000
0100
0000
,
1101
0010
0100
1000
0101
0010
0101
1000
0011
0000
0100
0100
1011
0000
0100
0000
,
0011
0000
0100
0100
1011
0000
0100
0000
0011
0000
1000
1000
0111
0000
1000
0000
,
0111
1000
0010
0100
1001
0010
1000
0100
1001
0000
0010
0010
1101
0000
0010
0000
,
1001
0000
0010
0010
1101
0000
0010
0000
0101
0000
1000
1000
0111
0000
1000
0000
,
1011
0100
1001
0100
1001
0010
0101
1000
0012
0100
1003
0100
0021
0000
0130
1000
,
0102
1000
0023
0000
0132
1000
0103
0010
1002
0100
1003
0010
1002
0100
2003
0010
,
3201
1000
0310
0000
2001
0000
0000
0000
3012
0100
1003
0010
0201
0000
0310
1000
,
0201
1000
0320
0000
0231
1000
0310
0100
0021
1000
0130
1000
0012
0110
0203
1000
,
0312
1000
0103
0000
2011
0000
0100
0010
3102
0010
1003
0100
2001
0000
3010
0100
,
1002
0010
0203
0000
0312
1000
0013
0100
0021
1000
0130
1000
0021
1000
0230
1000
,
0311
0100
0020
0000
2032
0000
0003
0000
3012
0100
1003
0010
0201
0000
0320
1000
,
0132
0010
0203
0000
2310
0001
0010
0001
3212
0000
0000
0000
2323
0000
0000
0000
,
0000
0000
3130
0100
2010
0000
0000
0000
3111
0000
0000
0000
1110
0000
1011
0000
,
0111
0000
0000
0000
0101
0000
1010
0000
0101
0000
0000
0010
0100
0000
1010
0000
,
0101
0000
0111
1001
1110
0000
1110
1001
,
0111
0000
0000
0000
0011
0000
0011
0000
1100
0000
0000
0010
0100
0000
1010
0000
,
0110
0000
1101
1001
1011
0000
1101
1001
,
1011
0000
0000
0000
0101
0000
0011
0000
1100
0000
0000
0010
0100
0000
1100
0000
,
0110
0000
1011
1001
1101
0000
1110
1001
,
1101
0000
0000
0000
0101
0000
0110
0000
1100
0000
0000
1010
0101
0000
0011
0000
,
1100
0000
0000
0000
1101
0010
0100
0010
2101
0000
0000
0000
0000
0000
0000
0000
,
3210
0000
0000
0000
0000
0000
0000
1000
1320
0000
0000
0000
1001
0000
0000
0000
,
0101
0000
0000
0000
0000
0000
0000
0001
0231
0000
0000
0000
0000
0000
0000
0000
,
2301
3210
0321
1100
,
1001
0000
0001
1000
0101
0000
1100
1000
0231
0000
1000
0000
0311
0000
0110
0000
,
2001
0010
3011
1100
0011
1100
0101
0110
,
0201
1000
0311
0110
2001
0010
3011
0110
,
2001
0010
3011
1100
0011
1100
0101
0110
,
1001
0000
0000
0000
1100
0001
0010
0001
2220
0000
0000
0000
0000
0000
0000
3330
,
0101
0110
1010
0110
0011
0011
0110
1100
,
0011
0110
1001
0110
1010
0101
0011
1100
,
0011
0110
1010
0110
1010
0101
1010
0110
,
0101
0000
0110
0000
1100
0000
0110
0000
0110
0000
1001
0000
0110
0000
0101
0001
,
1001
0100
0011
0110
1001
0100
0011
0110
,
1001
0000
0010
0100
1001
0000
1010
0000
0101
0000
0010
0000
0011
0000
0110
0000
,
1001
0000
0100
0000
0011
0000
0110
0000
1101
0000
1001
0010
1100
0010
1001
0010
,
1100
0000
0000
0001
1010
0000
0101
0000
2010
0000
0000
0000
0011
0000
3110
0000
,
1001
0100
0011
0110
1001
0100
0011
0110
,
1001
0000
0100
0010
0101
0000
1010
0000
0101
0000
0100
0000
0011
0000
0110
0000
,
1001
0100
0011
0110
1001
0100
0011
0110
,
1001
0000
0100
0010
0101
0000
1010
0000
0101
0000
0101
0000
0011
0000
0101
0000
,
1001
0100
0011
0110
1001
0100
0011
0110
,
1001
0000
0100
0010
0101
0000
1010
0000
0101
0000
0100
0000
0011
0000
0100
0000
,
1001
0100
0011
0100
1001
0100
0011
0110
,
1010
0100
0011
0100
0011
0100
1010
0100
1010
0100
0011
0100
0011
0100
0011
0100
,
1001
0110
1001
0110
1001
0110
0011
0110
,
1001
0110
1001
0110
0001
0110
0011
0110
,
1001
0110
1001
0110
0001
0110
0011
1010
,
0101
0000
0010
0000
0101
0000
0110
0000
1010
0000
0101
0000
1010
0001
0110
0000
,
1001
0110
1001
0110
0001
0110
0011
0110
,
1001
0110
1001
0110
0001
0110
0011
0110
,
1001
0110
1001
0110
0001
1010
0011
1010
,
0101
0000
1010
0000
0101
0000
0110
0000
1100
0010
1001
0010
1100
0001
0110
0001
,
1010
0000
0110
0011
0110
1100
0110
0110
,
1100
0011
0110
0110
1001
0000
0000
0000
,
0000
0000
0000
0000
,
0000
0000
0000
0000
,
0000
0000
0000
0000
;

//---------------dance-solo - ----------------
#NOTES:
     dance-solo:
     :
     Hard:
     15:
     1.000,1.000,1.000,0.401,0.516,554.000,237.000,42.000,0.000,30.000:
000000
000000
110000
000100
100002
000000
000203
000000
,
002301
203100
320001
030200
,
102300
000000
000000
003000
100002
000000
100203
000000
,
002301
000000
000000
000000
000000
000000
000000
000000
000000
000000
000000
000000
203010
000000
000000
000000
000000
000000
300000
000000
000000
000000
000000
000000
010000
000000
000000
000000
000000
000000
100000
000000
001000
000000
000100
000000
000001
000000
000000
010000
000000
000000
000001
000000
000000
001000
000000
000000
,
000100
100000
000100
100000
020201
000000
000000
000000
130301
000000
001000
000000
100100
000000
000001
000000
,
100100
000001
101000
000001
101000
000001
100010
000001
,
101000
000001
100100
001000
100001
010000
100100
000001
,
100100
000001
101000
000001
100100
000001
101000
000100
,
100001
000000
000100
001000
100001
000000
000100
010000
100101
000000
000100
000100
101000
000000
000100
000000
,
101000
000000
000100
000100
101000
000000
000100
000000
101000
000000
000001
000001
101000
000000
000001
000000
,
100100
000000
000001
000001
101000
000000
000001
000000
100010
000000
001000
010000
100100
000000
001000
000000
,
100100
000000
010000
001000
100010
000000
001000
000000
100001
000000
000100
000100
100001
000000
000100
000000
,
100001
001000
000100
000001
100010
001000
100100
000001
110000
000000
000100
000010
101000
000000
000100
000000
,
101000
000000
000100
000100
101000
000000
000100
000000
110000
000000
000001
000001
101000
000000
000001
000000
,
100100
000001
010000
000100
100001
001000
000001
000010
100001
000000
001000
010000
100001
000000
001000
000000
,
100001
000000
000100
010000
100001
000000
001000
000000
100001
000000
000001
000001
100100
000000
000001
000000
,
101000
000100
100001
000100
100001
001000
100100
000001
110000
000010
000001
000010
102000
000000
003100
000001
,
101000
000001
002000
000000
103010
000001
000100
001000
100001
000010
000001
010000
100001
000100
000001
001000
,
100001
001000
000001
000000
100002
000000
000000
000000
110003
000100
000001
010000
100200
000000
010300
000001
,
100100
000001
002000
000000
103100
000001
001000
000100
101000
000001
000010
000001
101000
000010
010000
000001
,
101000
000001
000100
000000
100002
000000
000100
001000
100103
001000
000001
000010
100002
000000
001003
000100
,
100001
001000
000200
000000
101300
000001
010000
000100
101000
000001
000100
000001
110000
000001
000100
000001
,
101000
000100
001000
000000
100002
000000
000000
000000
110003
000100
000001
010000
100200
000000
010300
000001
,
100100
001000
000020
000000
001031
100000
010000
100000
001001
000000
000000
000000
002002
000000
000000
000000
,
000000
000000
003013
100000
010002
000000
000000
000000
001103
000000
000000
000000
001100
000000
100001
000000
,
010100
000000
000000
000000
100000
000000
001000
000000
000010
000000
000000
001000
000010
000000
000001
000000
,
000100
000000
001100
100001
001100
000000
001010
100001
,
001010
000000
000000
000000
100000
000000
010000
000000
000100
000000
000000
001000
000100
000000
000001
000000
,
000100
000000
010100
100001
010100
000000
001100
100001
,
001100
000000
000000
000000
100000
000000
001000
000000
000100
000000
000000
001000
000100
000000
000001
000000
,
010000
000000
001100
100001
001100
000000
001100
100001
,
001010
000000
000000
000000
100000
000000
010000
000000
000100
000000
000000
001001
100100
000000
101000
000000
,
000101
000000
000000
000000
100001
001000
000100
010000
100002
000000
000000
000000
000000
000000
000000
000000
,
000203
000000
000000
000000
000000
000000
000000
000001
120300
000000
000000
000000
100000
000000
000000
000000
,
100000
000000
000000
000000
000000
000000
000000
100000
130200
000000
000000
000000
000000
000000
000000
000000
,
100302
000023
102030
000001
,
000001
000000
100000
000001
000010
000000
000001
000001
103200
000000
000000
000000
110300
000000
000010
000000
,
100002
000000
101003
000010
110000
000001
100010
001000
,
100200
000000
101300
000010
100002
000000
110003
000100
,
100002
000000
101003
000100
101000
000001
100100
001000
,
100001
000000
000000
000000
000101
010000
100000
001000
000202
000000
000000
000000
000000
000000
000000
000303
,
100000
000010
000001
000100
001000
100000
010000
000100
,
100000
001000
000001
000100
010000
100000
001000
000100
,
100000
001000
000001
000010
001000
100000
010000
000100
,
100000
000000
001000
000000
000001
000000
000100
000000
001000
000000
100000
000000
010000
000000
100010
100000
,
100001
000000
101000
000100
100001
000000
101000
000100
,
100001
000000
000000
000100
100001
000000
000001
000000
100100
000000
000000
000000
110000
000000
000010
000000
,
100001
000000
000000
000000
110000
000000
000100
000000
100001
000000
100000
001000
000100
010000
100000
010000
,
000101
000000
000000
100000
001001
000000
100100
000000
010002
000000
000000
000000
101000
000000
000013
000000
,
100001
000000
101000
000100
100001
000000
101000
010000
,
100001
000000
000000
001000
100100
000000
000001
000000
100100
000000
000000
000000
101000
000000
010000
000000
,
100001
000000
101000
010000
100001
000000
101000
000100
,
100001
000000
000000
001000
100010
000000
000001
000000
100100
000000
100000
000000
101000
000000
100010
000000
,
100001
000000
101000
000100
100001
000000
101000
010000
,
100001
000000
000000
001000
100100
000000
000001
000000
100100
000000
000000
000000
101000
000000
000100
000000
,
100001
000000
110000
000100
100001
000000
101000
000010
,
000001
010000
001000
100000
001000
000100
000001
000100
001000
100000
010000
000010
000001
000010
001000
000100
,
100001
001000
100001
010010
100000
010010
110000
001100
,
100001
001000
100001
001010
100000
001100
110000
001010
,
100001
001000
100001
001100
100000
001010
101000
010001
,
100100
000000
001000
000000
100100
000000
001000
000000
010001
000000
000100
000000
010001
100000
010100
000000
,
100001
001000
100001
010010
100000
001100
100010
001100
,
100001
010000
100001
001100
100000
001010
110000
001010
,
100001
001000
100001
010010
100000
001001
110000
001001
,
100100
000000
001001
000000
100010
000000
000000
000000
000101
010000
100001
001000
000101
100000
010010
100000
,
001001
000000
000100
100000
000100
000001
010000
000100
,
000001
100000
010000
000100
000001
000000
000000
000000
,
000000
000000
000000
000000
,
000000
000000
000000
000000
,
000000
000000
000000
000000
;

//---------------dance-solo - ----------------
#NOTES:
     dance-solo:
     :
     Challenge:
     19:
     1.000,1.000,1.000,0.420,0.521,555.000,321.000,44.000,0.000,109.000:
000000
000000
100010
001000
100200
000000
002300
000000
,
023100
030120
020130
032000
,
103002
000003
100200
102300
,
023100
000000
000000
000000
000000
000000
000000
000000
000000
000000
000000
000000
030210
000000
000000
000000
000000
000000
000300
000000
000000
000000
000000
000000
100000
000000
000000
000000
000000
000000
100000
000000
010000
000000
001000
000000
000100
000000
000000
010000
000000
000000
000100
000000
000000
010000
000000
000000
,
001000
000100
000010
000100
021120
000000
000000
000000
131131
000000
010100
000000
101000
000000
000101
000000
,
101000
001100
110000
000110
110000
010100
101000
001100
,
110000
000110
100010
011000
100100
010010
101000
000101
,
101000
001100
110000
000110
101000
000101
110000
001010
,
100100
000000
001000
010000
100100
000000
000100
000010
001101
000000
001000
001000
110100
000000
001000
000000
,
110000
000000
000010
000010
000111
000000
001000
000000
001010
000000
000100
000100
001110
000000
000100
000000
,
110000
000000
000100
000100
001101
000000
000100
000000
101000
000000
010000
010000
101010
000000
010000
000000
,
101010
000000
000100
000100
000111
000000
000010
000000
001001
000000
001000
001000
101100
000000
001000
000000
,
100100
010000
001000
000100
001010
000100
001010
000100
001010
000000
001000
001000
111000
000000
001000
000000
,
110000
000000
001000
001000
001110
000000
001000
000000
110000
000000
000100
000100
001110
000000
000100
000000
,
101000
000100
010000
001000
010100
001000
000100
000010
000101
000000
010000
010000
101100
000000
010000
000000
,
100100
000000
010000
010000
101100
000000
010000
000000
101000
000000
000100
000100
001011
000000
000100
000000
,
110000
001000
100100
001000
100100
010000
101000
000100
000011
000010
000100
001000
120000
000000
031000
000100
,
111000
000100
000020
000000
010131
000100
001000
010000
100100
001000
000100
000010
010101
001000
000100
010000
,
101010
000100
000010
000000
100201
000000
000000
000000
111300
001000
000100
000010
000201
000000
010300
000100
,
101010
000100
020000
000000
131010
000100
010000
001000
010010
000100
001000
000100
010010
001000
010000
000100
,
010010
000100
001000
000000
100200
000000
001000
010000
101301
010000
001000
000100
000102
000000
010003
001000
,
100101
001000
000200
000000
111300
000100
010000
001000
110000
000100
001000
000100
110000
001000
000100
000010
,
001010
001000
010000
000000
100200
000000
000000
000000
110300
001000
000100
000010
102000
000000
013000
000100
,
101000
000100
002000
000000
013100
000010
000100
001000
010100
000000
000000
000000
121211
000000
000000
000000
,
000000
000000
131311
001000
010200
000000
000000
000000
011310
000000
000000
000000
011110
000000
100001
000000
,
011110
000000
000000
000000
100000
000000
010000
000000
001000
000000
000000
000010
000100
000000
001100
000000
,
011000
000000
011110
100001
011110
000000
011110
100001
,
011110
000000
000000
000000
100000
000000
010000
000000
001000
000000
000000
010000
001000
000000
000110
000000
,
001100
000000
011110
100001
011110
000000
011110
100001
,
011110
000000
000000
000000
100000
000000
010000
000000
001000
000000
000000
000010
000100
000000
001100
000000
,
010010
000000
011110
100001
011110
000000
011110
100001
,
011110
000000
000000
000000
100000
000000
010000
000000
001000
000000
000000
010101
101010
000000
110000
000000
,
001100
000000
000000
000000
100100
010000
001000
000100
000210
000000
000000
000000
000000
000000
000000
000000
,
002300
000000
000000
000000
000000
000000
000000
000100
123110
000000
000000
000000
101100
000000
000000
000000
,
101010
000000
000000
000000
000000
000000
000000
100000
132000
000000
000000
000000
000000
000000
000000
000000
,
113210
000320
101132
011103
,
011100
000000
100000
000100
001000
000000
000100
000100
102000
000000
000000
000000
113010
000000
001000
000000
,
100200
000000
001310
001000
000110
000100
101000
010000
,
001120
000000
110130
001000
100200
000000
110300
001000
,
100200
000000
110300
001000
110000
000100
000101
010000
,
100101
000000
000000
000000
001100
010010
100001
010010
202202
000000
000000
000000
000000
000000
000000
303303
,
110000
011000
000110
001100
011000
001100
001100
001100
,
110000
011000
000110
001100
011000
110000
011000
001100
,
000110
000011
001100
011000
110000
110000
011000
001100
,
000110
000000
000011
000000
001100
000000
011000
000000
110000
000000
110000
000000
011000
000000
011110
011110
,
011110
000000
110000
001000
100100
000000
110000
001000
,
100100
000000
000000
000001
000110
000000
000100
000000
101000
000000
000000
000000
110000
000000
001000
000000
,
100100
000000
000000
000000
110000
000000
001000
000000
100100
000101
000010
000100
001010
010000
101000
010000
,
001100
000000
000000
100000
010100
000000
101000
000000
010200
000000
000000
000000
110000
000000
001300
000000
,
100100
000000
110000
001000
100100
000000
110000
001000
,
100100
000000
000000
000001
001010
000000
000100
000000
101000
000000
000000
000000
110000
000000
001000
000000
,
100100
000000
110000
001000
100100
000000
110000
001000
,
100100
000000
000000
000100
000110
000000
000100
000000
101000
000000
100000
000000
110000
000000
101000
000000
,
100100
000000
110000
001000
100100
000000
110000
001000
,
100100
000000
000000
000001
000110
000000
000100
000000
101000
000000
000000
000000
110000
000000
001000
000000
,
100100
000000
110000
001000
100100
000000
110000
001000
,
010100
001000
010000
101000
010000
001000
000100
000010
000101
000010
000100
001000
000100
001000
010100
001000
,
101100
011000
100110
011010
111000
011000
110010
011000
,
100101
011000
100101
011000
100101
011000
110010
011000
,
100101
010100
100101
011000
100101
011000
110010
010100
,
101001
000000
010100
000000
101010
000000
010100
000000
010101
000000
001100
000000
011100
000010
011000
000000
,
100101
011000
100101
011000
100110
011000
110100
011000
,
101001
011000
100101
011000
101010
011000
110100
011000
,
101100
011000
101100
011000
101010
010100
110010
010100
,
101010
000000
010100
000000
101010
000000
000000
000000
001100
010010
101101
010010
001100
100000
011000
100000
,
011100
000000
001000
100000
001000
000100
010000
001000
,
000100
000001
000100
001000
000100
000000
000000
000000
,
000000
000000
000000
000000
,
000000
000000
000000
000000
,
000000
000000
000000
000000
;
